Black Sabbath 1980.11.18 Demonization (Shades 038)

Black Sabbath
Demonization
Shades 038

1980.11.18
Nakano Sunplaza
Tokyo, Japan

Extracted to FLAC from original bootleg discs via EZ CD Audio Converter

Mixing Desk
101 Supertzar
102 War Pigs
103 Neon Knights
104 N.I.B.
105 Children Of The Sea
106 Sweet Leaf – Drum Solo
107 Lady Evil
108 Black Sabbath
109 Heaven And Hell
110 Iron Man

FM Soundboard
201 Neon Knights
202 N.I.B.
203 Children Of The Sea
204 Sweet Leaf – Drum Solo
205 Lady Evil
206 Black Sabbath
207 Heaven And Hell
208 Iron Man

Audience Source
301 Supertzar
302 War Pigs
303 Neon Knights
304 N.I.B.
305 Children Of The Sea
306 Sweet Leaf – Drum Solo
307 Lady Evil
308 Black Sabbath
309 Heaven And Hell
310 Iron Man

Artwork included.

Download from FileFactory: https://www.filefactory.com/file/3agmxre6cd42/0422.rar

Download from mega.nz: https://mega.nz/file/MchxHbCK#C-lXY9abraS-8dEAcOD5elNKLjxzCgyA5JHJhYUgxi0

Enjoy!

Shared at https://PurpleHippies.com on 2022.12.27

101 Supertzar.flac:5f1e8e2b328f1c314282e713f5ef363d
102 War Pigs.flac:2dbafdbf62b92e0682830e992002f794
103 Neon Knights.flac:e94c98e2966a07b41d65cbe7eb14359a
104 N.I.B..flac:da6fb83de54551152e17d3b3f2b89371
105 Children Of The Sea.flac:cb19c2e0875b7345e16f272b840cec98
106 Sweat Leaf – Drum Solo.flac:8daa02a7e826d1a796af01bff2889116
107 Lady Evil.flac:d60931f082fdc91b245f48d2227205db
108 Black Sabbath.flac:097d7927aba45e55c241479bf767da50
109 Heaven And Hell.flac:d5b90e4e7ebb35f2e65bf9eaca84adcd
110 Iron Man.flac:62ee8d6925db084095a56923f3b65f90
201 Neon Knights.flac:813b3a52ba993fc8fe755a4b55269a69
202 N.I.B..flac:1048e63783ae1ab7d065e1c1cc06c38f
203 Children Of The Sea.flac:910c244d60b713335add95db183aa2ef
204 Sweet Leaf – Drum Solo.flac:bad5c2779c8f1b73598e9da3c882b2a6
205 Lady Evil.flac:b0f643f79a9f438fa5530b249d6263e5
206 Black Sabbath.flac:44e81f9c1d00ada3266b9c27b58b89bb
207 Heaven And Hell.flac:c380db14bd5011ca6366c827581564ed
208 Iron Man.flac:caa7f43eaa742f932250a00ed1403ad4
301 Supertzar.flac:f1ae76ab641ec95ae9fde042abe5611d
302 War Pigs.flac:6a21eabda6089f76962bedf9610d1a27
303 Neon Knights.flac:1ee6bea803d2205409194e04d4cca202
304 N. I. B..flac:9654a8d9464930863538b5309ad0c54b
305 Children Of The Sea.flac:b3533e8208e3dec23107dd405aa4ec26
306 Sweet Leaf – Drum Solo.flac:c7d543f29eaf01a4a8bf81e25cf69e4b
307 Lady Evil.flac:94edf0f122c52252a75b213e6db74f5f
308 Black Sabbath.flac:79a94da7472288386cea23b7e27cc74d
309 Heaven And Hell.flac:d73feee88c6b5c6fbef18e788539c4df
310 Iron Man.flac:e8fdf4ed84547400f145b5c1b5ec9e89

e59879e3ec46cabce0ca6bbefa4c3486 *101 Supertzar.flac
8a5124ff36c2700f734c97cfd0e64e8e *102 War Pigs.flac
2255ef9426864a50fde784d296dcbc9a *103 Neon Knights.flac
91e51ad5c35418cfd3f429f591a3e03e *104 N.I.B..flac
80f54b98ebef28ac51a76887318e64db *105 Children Of The Sea.flac
9f1b645e78c3cea764a7ca13f5ecafb1 *106 Sweat Leaf – Drum Solo.flac
132cab53371dd3aeb55bf643f93aa5ac *107 Lady Evil.flac
987c03d8dee2c4bcc13df4f653184d00 *108 Black Sabbath.flac
c05a795fb47c7877c86f93bdddc37030 *109 Heaven And Hell.flac
bfd32c77adf64f122b606c9dc79599a7 *110 Iron Man.flac
3c54456f88619701ad40651d20df3417 *201 Neon Knights.flac
4fff4ec69cafb8e63474226ccca537b0 *202 N.I.B..flac
eceb28898f9e973b76d7ca820ce33126 *203 Children Of The Sea.flac
b4805691746a08ee672172deecb61a7e *204 Sweet Leaf – Drum Solo.flac
bf331a70ba7e6ceb138a62bc4a690f16 *205 Lady Evil.flac
f57e6e2c7b25bd79d59fe2867dd0b165 *206 Black Sabbath.flac
65e0ae219cd6e6bd4de3117abe7f7655 *207 Heaven And Hell.flac
a1875d2d321d1a8686b8365f49cdee01 *208 Iron Man.flac
f28be1a0e24f3896aa326d5701b793e5 *301 Supertzar.flac
57a13d4b2b728637e3dcd03bfd8d527b *302 War Pigs.flac
8627adc12a2b9e075837f8fd43f62d51 *303 Neon Knights.flac
9edb90593820a9d83ba69f422087bb97 *304 N. I. B..flac
c5578765789adf823fb4a1f0085d5842 *305 Children Of The Sea.flac
4c3055b49bf7c7caf3c09dec5a0c14f2 *306 Sweet Leaf – Drum Solo.flac
c5902a27e0b1012f95aaf11774775867 *307 Lady Evil.flac
e9584b95d091536e1f2feb82c713d35f *308 Black Sabbath.flac
f2fd50668e3f91235dbd9f25c0e32346 *309 Heaven And Hell.flac
9b4e51c9b12859c1564c7bd79d3eca86 *310 Iron Man.flac

length     expanded size    cdr  WAVE problems  fmt   ratio  filename
 1:39.74       17637692 B   ---   --   ---xx   flac  0.5950  101 Supertzar.flac
 7:37.00       80614844 B   ---   --   ---xx   flac  0.6774  102 War Pigs.flac
 5:06.52       54100748 B   ---   --   ---xx   flac  0.6659  103 Neon Knights.flac
 5:52.72       62262188 B   ---   --   ---xx   flac  0.6499  104 N.I.B..flac
 6:33.48       69438140 B   ---   --   ---xx   flac  0.6401  105 Children Of The Sea.flac
10:50.09      114681212 B   ---   --   ---xx   flac  0.6054  106 Sweat Leaf - Drum Solo.flac
 4:31.67       47962028 B   ---   --   ---xx   flac  0.6666  107 Lady Evil.flac
10:03.34      106449212 B   ---   --   ---xx   flac  0.5237  108 Black Sabbath.flac
10:25.55      110379404 B   ---   --   ---xx   flac  0.6197  109 Heaven And Hell.flac
 7:21.26       77853596 B   ---   --   ---xx   flac  0.6545  110 Iron Man.flac
 5:04.36       53710316 B   ---   --   ---xx   flac  0.7225  201 Neon Knights.flac
 5:42.43       60429980 B   ---   --   ---xx   flac  0.7086  202 N.I.B..flac
 6:24.20       67784684 B   ---   --   ---xx   flac  0.7127  203 Children Of The Sea.flac
10:30.47      111242588 B   ---   --   ---xx   flac  0.6940  204 Sweet Leaf - Drum Solo.flac
 4:43.37       50008268 B   ---   --   ---xx   flac  0.7279  205 Lady Evil.flac
 8:56.50       94668044 B   ---   --   ---xx   flac  0.6693  206 Black Sabbath.flac
10:24.13      110104220 B   ---   --   ---xx   flac  0.7041  207 Heaven And Hell.flac
 7:13.64       76531772 B   ---   --   ---xx   flac  0.7306  208 Iron Man.flac
 1:45.54       18649052 B   ---   --   ---xx   flac  0.5312  301 Supertzar.flac
 7:38.56       80922956 B   ---   --   ---xx   flac  0.5545  302 War Pigs.flac
 5:07.72       54324188 B   ---   --   ---xx   flac  0.5533  303 Neon Knights.flac
 5:54.06       62459756 B   ---   --   ---xx   flac  0.5323  304 N. I. B..flac
 6:35.30       69748604 B   ---   --   ---xx   flac  0.5342  305 Children Of The Sea.flac
10:51.55      114965804 B   ---   --   ---xx   flac  0.5176  306 Sweet Leaf - Drum Solo.flac
 4:52.30       51579404 B   ---   --   ---xx   flac  0.5511  307 Lady Evil.flac
 9:27.40      100112924 B   ---   --   ---xx   flac  0.5446  308 Black Sabbath.flac
10:29.04      110965052 B   ---   --   ---xx   flac  0.5404  309 Heaven And Hell.flac
 7:32.28       79798700 B   ---   --   ---xx   flac  0.5610  310 Iron Man.flac

199:17.72 2109385376 B 0.6189 (28 files)

Deep Purple 1975.12.11 Rises Over Osaka (Shades 367)

Deep Purple
Rises Over Osaka

1975.12.11
Koseinenkin Kaikan
Osaka, Japan

Audience recordings

Extracted to FLAC from original bootleg discs via EZ CD Audio Converter
Shared at https://PurpleHippies.com on 2022.12.19

Recorder 1
101 Intro
102 Burn
103 Lady Luck
104 Love Child
105 Getting Tighter
106 Smoke On The Water
107 Georgia On My Mind
108 I Need Love
109 Soldier Of Fortune
110 Keyboard Solo
111 Lazy
112 Drums Solo
201 This Time Around
202 Owed To G
203 Guitar Solo
204 Drifter
205 You Keep On Moving
206 Stormbringer
207 Highway Star

Recorder 2
301 Intro
302 Burn
303 Lady Luck
304 Love Child
305 Getting Tighter
306 Smoke On The Water
307 Georgia On My Mind
308 I Need Love
309 Soldier Of Fortune
310 Keyboard Solo
311 Lazy
312 Drums Solo
401 This Time Around
402 Owed To G
403 Guitar Solo
404 Drifter
405 You Keep On Moving
406 Stormbringer

Artwork included.

Download from FileFactory: https://www.filefactory.com/file/1j7ged5iauww/0420.rar

Download from mega.nz: https://mega.nz/file/JYgQyYQY#hMVVZliIsJmh-kG_3gQuRc9BK_K3tJpdNuCqFx62yAw

Enjoy!

101 Intro.flac:36b92d2051d435dc1b0ff1088cb03999
102 Burn.flac:283421536ed454cbd8a8199fe83b0ee4
103 Lady Luck.flac:f1b1da262e722b1592201868880f12d9
104 Love Child.flac:3ad8a4d1749dadfa687f0e16fb4c4389
105 Getting Tighter.flac:de3a3a354336646f0b02aa37ed0e52aa
106 Smoke On The Water.flac:7dfd37bbf5f0ad552f75a3e6a3e20946
107 Georgia On My Mind.flac:72eb0a553e9223ebd65089f26bb279ee
108 I Need Love.flac:6564ed2b55ff05912ecf90bd78436d34
109 Soldier Of Fortune.flac:e201637c7fa47b8f16fd1f7b346598d8
110 Keyboard Solo.flac:704d698e5a07d1c04147a91925e9bd82
111 Lazy.flac:ea6943cfc75c8a03cb89fded3b1170f5
112 Drums Solo.flac:62eef7237f4bae36588635492d761e9d
201 This Time Around.flac:4a36464d9bb4e28b862fd85e657deba7
202 Owed To G.flac:117e182c70b2d226d187e752125377c8
203 Guitar Solo.flac:c8c56423a6879cc4bd0de07d8684d22c
204 Drifter.flac:067d62bb26b4599dba4497b709001559
205 You Keep on Moving.flac:bcf663961d4d4a5807bd5c0ed73a55ef
206 Stormbringer.flac:64629c8822c63908e43808800da64f23
207 Highway Star.flac:6b738a0b6b18d63b134c22a76305906f
301 Intro.flac:1c2ec6c45258bff244b404184a09ced8
302 Burn.flac:74de68ced51235a4af684e08165036aa
303 Lady Luck.flac:04dd3d96d0c3c8eab167fde5387cbec9
304 Love Child.flac:158656387a82200dd831da4aab0541d8
305 Getting Tighter.flac:db38268038b6cde59c2628a1ba8da761
306 Smoke On The Water.flac:b2312db46b34bba64094cd55c4585848
307 Georgia On My Mind.flac:b95d023db42a4ba52ca5919d1236745b
308 I Need Love.flac:6c8859487398af68af4bac45e36c6479
309 Soldier Of Fortune.flac:14cb70788727da9e9b381b8518c3dbca
310 Keyboard Solo.flac:3c1311d54a2cba3d1ca9a99d1fccc2dd
311 Lazy.flac:80c7c4b77151db3dec098465c9f32021
312 Drums Solo.flac:42cdf95886588f98571480f740f29e1e
401 This Time Around.flac:be1a4041de14cc11ddb39cb7338ea958
402 Owed To G.flac:e1bdae3b7a6c9db4af353ab09bd3985d
403 Guitar Solo.flac:225724ed6de7c32042875e65c3b084c4
404 Drifter.flac:90124b10216df54808b17ebf94895b5d
405 You Keep On Moving.flac:a16b6ce677bdcd4d9f9c147a7277a0cd
406 Stormbringer.flac:7ad8dcbf7808808517cd9936f11e48e9

aae691f6ff2b45f6a65282be79378568 *101 Intro.flac
f3c855e97be573e29c5c70b798998744 *102 Burn.flac
1aa28347120f7a8c2c3000fc89f203ba *103 Lady Luck.flac
09f2b66288af96b09f9c521afa81d529 *104 Love Child.flac
8c6c043fe284de9bbe2b5f99f965ff03 *105 Getting Tighter.flac
274a53bb9e0d2aef529e505eb430a8ed *106 Smoke On The Water.flac
a143d6a1091dac7afd7bd7ae43ed8dda *107 Georgia On My Mind.flac
dbc9d79b60a96e4550a3906e56d223d6 *108 I Need Love.flac
f26554a9db840d5eea5efac244b9b972 *109 Soldier Of Fortune.flac
9a71830e1ce02da5e343434a3ea2ed06 *110 Keyboard Solo.flac
c1b00eb237bd01ec772c59f4b3cccca8 *111 Lazy.flac
2952961cb3f6ca824ff175716d227913 *112 Drums Solo.flac
359804fef86a09a95582b87e6131692e *201 This Time Around.flac
33790ed58b0b0a572ae558c78b828713 *202 Owed To G.flac
fb640470a336610128c892f4a737f3b3 *203 Guitar Solo.flac
0ef05e912aa7f5f4f1c0e49f41db1ed3 *204 Drifter.flac
0beaa8c94f04d575d5abfbffcae07bbf *205 You Keep on Moving.flac
9c1746d564c11f779cb88ccfa51e69e6 *206 Stormbringer.flac
9a669837d358a28b64b8eff0343026d1 *207 Highway Star.flac
cae40a662372afe44871c1b5626948f7 *301 Intro.flac
6c722a591221c4405700c17ace97c63a *302 Burn.flac
2933f3aaea8bee37c26e61a42866967f *303 Lady Luck.flac
ac5080cd908d530e82430cd0e537c2a2 *304 Love Child.flac
e049aaa496ede5139baba25598856650 *305 Getting Tighter.flac
be0bef524e63419f876152fa95733777 *306 Smoke On The Water.flac
5171724ceda1fa4ca06bbc8db050bbdd *307 Georgia On My Mind.flac
b628b8c3563daa610e38f93cda68597b *308 I Need Love.flac
907675e4e7589ca7dd121c2131ee3c70 *309 Soldier Of Fortune.flac
85a5dd37220eaea02712bb19d07ff7b5 *310 Keyboard Solo.flac
2e8eba6014337a772f7101650471b0f3 *311 Lazy.flac
f8a3036cdc0f2e83550e400ae3f27767 *312 Drums Solo.flac
e399ac376554c0cae702edf7f1594983 *401 This Time Around.flac
73133ab8da41d3ebce6c7c6ea6f2ccb6 *402 Owed To G.flac
54658782a4fa29806627c11b62a17ecd *403 Guitar Solo.flac
c4dcfca3ecc5b1243be57d2aeb94b33d *404 Drifter.flac
9ef2f5fff81423c345e68d9758b2d932 *405 You Keep On Moving.flac
54a0ed44f58b502220ee21adae1783f5 *406 Stormbringer.flac

length     expanded size    cdr  WAVE problems  fmt   ratio  filename
 1:02.11       10962716 B   ---   --   ---xx   flac  0.6400  101 Intro.flac
 6:45.31       71514956 B   ---   --   ---xx   flac  0.6526  102 Burn.flac
 3:22.03       35639900 B   ---   --   ---xx   flac  0.6294  103 Lady Luck.flac
 4:44.74       50271692 B   ---   --   ---xx   flac  0.6401  104 Love Child.flac
14:25.27      152649548 B   ---   --   ---xx   flac  0.6303  105 Getting Tighter.flac
 5:40.03       59983100 B   ---   --   ---xx   flac  0.6325  106 Smoke On The Water.flac
 4:19.10       45711164 B   ---   --   ---xx   flac  0.6339  107 Georgia On My Mind.flac
 4:07.43       43671980 B   ---   --   ---xx   flac  0.6130  108 I Need Love.flac
 2:00.16       21205676 B   ---   --   ---xx   flac  0.6164  109 Soldier Of Fortune.flac
 6:08.16       64952876 B   ---   --   ---xx   flac  0.6314  110 Keyboard Solo.flac
 4:46.44       50553932 B   ---   --   ---xx   flac  0.6365  111 Lazy.flac
 7:25.46       78606236 B   ---   --   ---xx   flac  0.6262  112 Drums Solo.flac
 4:11.10       44299964 B   ---   --   ---xx   flac  0.6119  201 This Time Around.flac
 2:52.07       30357308 B   ---   --   ---xx   flac  0.6299  202 Owed To G.flac
 6:17.44       66606332 B   ---   --   ---xx   flac  0.6381  203 Guitar Solo.flac
 5:39.22       59851388 B   ---   --   ---xx   flac  0.6359  204 Drifter.flac
 6:12.70       65785484 B   ---   --   ---xx   flac  0.6210  205 You Keep on Moving.flac
 9:25.66       99821276 B   ---   --   ---xx   flac  0.6420  206 Stormbringer.flac
 6:53.53       72977900 B   ---   --   ---xx   flac  0.6418  207 Highway Star.flac
 0:22.00        3880844 B   ---   --   ---xx   flac  0.5269  301 Intro.flac
 6:34.52       69623948 B   ---   --   ---xx   flac  0.5023  302 Burn.flac
 3:20.11       35305916 B   ---   --   ---xx   flac  0.4745  303 Lady Luck.flac
 4:38.09       49060412 B   ---   --   ---xx   flac  0.4872  304 Love Child.flac
14:04.74      149055692 B   ---   --   ---xx   flac  0.4863  305 Getting Tighter.flac
 5:41.45       60258284 B   ---   --   ---xx   flac  0.5177  306 Smoke On The Water.flac
 4:14.67       44963228 B   ---   --   ---xx   flac  0.4776  307 Georgia On My Mind.flac
 3:56.27       41693948 B   ---   --   ---xx   flac  0.5135  308 I Need Love.flac
 1:53.70       20097884 B   ---   --   ---xx   flac  0.4354  309 Soldier Of Fortune.flac
 5:59.43       63428780 B   ---   --   ---xx   flac  0.4364  310 Keyboard Solo.flac
 4:53.64       51835772 B   ---   --   ---xx   flac  0.4889  311 Lazy.flac
 6:37.47       70141388 B   ---   --   ---xx   flac  0.4527  312 Drums Solo.flac
 3:56.00       41630444 B   ---   --   ---xx   flac  0.3486  401 This Time Around.flac
 2:39.16       28085276 B   ---   --   ---xx   flac  0.4196  402 Owed To G.flac
 6:14.71       66140636 B   ---   --   ---xx   flac  0.3679  403 Guitar Solo.flac
 5:31.62       58534268 B   ---   --   ---xx   flac  0.4380  404 Drifter.flac
 6:10.11       65293916 B   ---   --   ---xx   flac  0.4090  405 You Keep On Moving.flac
 8:33.60       90634364 B   ---   --   ---xx   flac  0.4363  406 Stormbringer.flac

201:43.50 2135088428 B 0.5492 (37 files)

Black Sabbath 1992.09.14 Winterthur 1992 (Shades 1396)

Black Sabbath
Winterthur 1992
Shades 1396

1992.09.14
Eulachhalle
Winterthur, Switzerland

Audience recording

Extracted to FLAC from original bootleg discs via EZ CD Audio Converter

101 E5150
102 The Mob Rules
103 Computer God
104 Children Of The Sea
105 Time Machine
106 War Pigs
107 I
108 Die Young
109 Guitar Solo
110 Black Sabbath
201 Master Of Insanity
202 After All (The Dead)
203 Drums Solo
204 Iron Man
205 Heaven And Hell
206 Neon Knights
207 Paranoid – Heaven And Hell (Reprise)

Artwork included.

Download from FileFactory: https://www.filefactory.com/file/5sxva3q4ja8/0416.rar

Download from mega.nz: https://mega.nz/file/QNh0nRxR#3Gv7SzhI9FsibRMmuqEjAn9Z2g0lnsAztBqIkXjm9Do

Enjoy!

Shared at https://PurpleHippies.com on 2022.03.06

DIO 1987.11.30 German Evil (Shades)

DIO
German Evil
Shades 152

1987.11.30
Niedersachsenhalle
Hannover, Germany

Audience recording

Extracted to FLAC from original bootleg discs via EZ CD Audio Converter

101 Intro
102 Stand Up And Shout
103 Dream Evil
104 Neon Knights
105 Sunset Supermen
106 Naked In The Rain
107 Guitar Solo
108 Naked In The Rain (Reprise)
109 The Last In Line
110 Holy Diver
111 Drum Solo
201 Heaven And Hell
202 Man On The Silver Mountain
203 All The Fools Sailed Away
204 Keyboard Solo
205 Instramental
206 All The Fools Sailed Away – The Last In Line
207 Night People
208 Rock ‘n’ Roll Children
209 Long Live Rock ‘n’ Roll – Rock ‘n’ Roll Children
210 Rainbow In The Dark
211 MC
212 We Rock
213 The Mob Rules

Artwork included.

Download from FileFactory: https://www.filefactory.com/file/5yv2adnrow4m/0413.rar

Enjoy!

Shared at https://PurpleHippies.com on 2021-12-27

DIO 1984.10.29 Heavy Line (Shades)

DIO
Heavy Line
Shades 220

1984-10-29
Brugahalle
Essen, Germany

Audience recording

Extracted to FLAC from original bootleg discs via EZ CD Audio Converter

01 Intro
02 Stand Up And Shout
03 One Night In The City
04 Don’t Talk To Strangers
05 Mystery
06 Egypt (The Chains Are On)
07 Holy Diver
08 Drum Solo
09 Heaven And Hell
10 Guitar Solo
11 Heaven And Hell (Reprise)
12 The Last In Line
13 Heaven And Hell (Reprise)
14 Rainbow In The Dark
15 Man On The Silver Mountain
16 Long Live Rock ‘n’ Roll
17 Man On The Silver Mountain (Reprise)
18 We Rock
19 Mob Rules

Artwork included.

Download from FileFactory: https://www.filefactory.com/file/6xcysky3krxm/0412.rar

Enjoy!

Shared at https://PurpleHippies.com on 2021-12-19

Whitesnake 1980-04-02 At Rainbow 1980 (Shades)

Whitesnake
1980-04-02
Rainbow Theatre
Finsbury Park
London, UK

At Rainbow 1980
Shades 495

Audience recording

Extracted to FLAC from original bootleg discs via EZ CD Audio Converter

101 Intro
102 Come On
103 You ‘n’ Me
104 Walking In The Shadow Of The Blues
105 Black And Blue
106 Ready An’ Willing
107 (Ain’t No Love) In The Heart Of The City
108 Micky Moody Solo
109 Lovehunter
110 Mistreated
201 Jon Lord Solo
202 Belgian Tom’s Hat Trick
203 Drum Solo – Belgian Tom’s Hat Trick (Reprise)
204 Fool For Your Loving
205 Lie Down
206 Take Me With You
207 Love Man
208 Breakdown
209 Whitesnake Boogie

Artwork included.

Download from FileFactory: https://www.filefactory.com/file/5hbtmt9r4jj6/0403.rar

Enjoy!

Shared by the PurpleHippie at https://PurpleHippies.com on 2021-05-21

Whitesnake 1983-02-22 Live Documents (Shades)

Whitesnake
1983-02-22
Budokan
Tokyo, Japan

Live Documents
Budokan 1983 Collector’s Edition
Shades 128

Extracted to FLAC from original bootleg discs via EZ CD Audio Converter

Soundboard & Audience Mix
101 Opening
102 Walking In The Shadow Of The Blues
103 Rough An’ Ready
104 Ready An’ Willing
105 Don’t Break My Heart Again
106 Here I Go Again
107 Lovehunter
108 Micky Moody & Colin Hodgkinson Solo
109 Lovehunter (Reprise)
201 Crying In The Rain – Mel Galley Solo
202 Soldier Of Fortune
203 Jon Lord Solo
204 Cozy Powell Solo – 633 Squadron – 1812 Overture
205 (Ain’t No Love) In The Heart Of The City
206 Fool For Your Loving
207 Thank You
208 Wine, Women An’ Song
209 We Wish You Well

Audience Recording
301 Opening
302 Walking In The Shadow Of The Blues
303 Rough An’ Ready
304 Ready An’ Willing
305 Don’t Break My Heart Again
306 Here I Go Again
307 Lovehunter
308 Micky Moody & Colin Hodgkinson Solo
309 Lovehunter (Reprise)
401 Crying In The Rain – Mel Galley Solo
402 Soldier Of Fortune
403 Jon Lord Solo
404 Cozy Powell Solo – 633 Squadron – 1812 Overture
405 (Ain’t No Love) In The Heart Of The City
406 Fool For Your Loving
407 Thank You
408 Wine, Women An’ Song
409 We Wish You Well

Artwork included.

Download from FileFactory: https://www.filefactory.com/file/6hqsxc7eh2yq/0402.rar

Enjoy!

Shared by the PurpleHippie at https://PurpleHippies.com on 2021-05-20

Deep Purple 1994-06-26 Swiss Rage (Shades)

Deep Purple
1994-06-26
Open Air
Sankt Gallen, Switzerland

Swiss Rage
Shades 279

Audience recordings

Extracted to FLAC from original bootleg discs via EZ CD Audio Converter

Long Version
101 Ramshackle Man
102 Maybe I’m A Leo
103 Fireball
104 Perfect Strangers
105 Pictures Of Home
106 Keyboard Solo
107 Knocking At Your Back Door
108 Anyone’s Daughter
109 Guitar Intro
110 Anya
201 The Battle Rages On
202 When A Blind Man Cries
203 Lazy
204 Drums Solo
205 Satch Boogie
206 Space Truckin’
207 Woman From Tokyo
208 Paint It Black
209 Speed King
210 Smoke On The Water

Edit Version 1: The Battle Rages On Fireball
301 Ramshackle Man
302 Maybe I’m A Leo
303 Fireball
304 Perfect Strangers
305 Pictures Of Home
306 Keyboard Solo
307 The Battle Rages On
308 When A Blind Man Cries
309 Speed King
310 Smoke On The Water

Edit Version 2: Fireball Over Switzerland (Remaster)
401 Ramshackle Man
402 Maybe I’m A Leo
403 Fireball
404 Perfect Strangers
405 Pictures Of Home
406 Keyboard Solo
407 Knocking At Your Back Door
408 The Battle Rages On
409 When A Blind Man Cries
410 Speed King
411 Smoke On The Water

Artwork included.

Download from FileFactory: http://filefactory.com/file/7cq4twd6t4r8/0394.rar

Enjoy!

Shared by the PurpleHippie at https://PurpleHippies.com on 2021-03-22

Black Sabbath 1983-08-27 Reading Rock ’83 (Shades)

Black Sabbath
1983-08-27
Thamembe Arena
Reading, UK

Reading Rock ’83
Shades 273

Extracted to FLAC from original bootleg discs via EZ CD Audio Converter

Audience recording
101 Supertzar
102 Children Of The Grave
103 Hot Line
104 War Pigs
105 Born Again
106 Supernaut
107 Drum Solo
108 Rock And Roll Doctor
109 Disturbing The Priest
110 Keep It Warm
201 Black Sabbath
202 The Dark
203 Zero The Hero
204 Guitar Solo
205 Digital Bitch
206 Iron Man
207 Smoke On The Water
208 Paranoid

FM recording, remastered
301 Hot Line
302 War Pigs
303 Black Sabbath
304 The Dark – Zero The Hero
305 Digital Bitch
306 Iron Man
307 Smoke On The Water
308 Paranoid

Artwork included.

Download from FileFactory: http://filefactory.com/file/3391428ji50k/0393.rar

Enjoy!

Shared by the PurpleHippie at https://PurpleHippies.com on 2021-03-17

DIO 1998-06-12 Cincinnati 1998 (Shades)

DIO
1998-06-12
Annie’s
Cincinnati, Ohio

Cincinnati 1998
Shades 1115

Audience recording

Extracted to FLAC from original silver CD via EZ CD Audio Converter

101 Intro
102 Evilution
103 Straight Through The Heart
104 Don’t Talk To Strangers
105 Holy Diver
106 Drum Solo
107 Heaven And Hell
108 Children Of The Sea
109 Stand Up And Shout
201 Shame On The Night
202 Mistreated – Catch The Rainbow
203 The Last In Line
204 Rainbow In The Dark
205 Neon Knights
206 Man On The Silver Mountain – Long Live Rock ‘n’ Roll
207 We Rock

Artwork included.

Download from FileFactory: http://filefactory.com/file/7befmr25sef2/0392.rar

Enjoy!

Shared by the PurpleHippie at https://PurpleHippies.com on 2021-03-15